Русское название: Легенды ночных стражей
Оригинальное название: Legend of the Guardians: The Owls of Ga’Hoole
Страна: США, Австралия
Год выпуска: 2010
Жанр: Мультфильм, Фэнтези, Приключения

Описание фильма:
Миром, в котором уже не осталось людей, правят совы… добрые… злые… как и всегда! В волшебном лесу — королевстве сов Тито — на Великом Дереве Га`Хуул, где разумные совы живут в гармонии, наступают мрачные времена. Королевство подвергается страшной опасности со стороны соседних жестоких правителей, и эта опасность грозит уничтожить привычное мироздание.

Режиссер: Зак Снайдер
Персонажи: Джим Стерджесс, Джоэл Эдгертон, Хьюго Уивинг, Эдриэнн ДеФариа, Ричард Роксбург, Дэвид Уэнэм, Хелен Миррен, Мириам Марголис, Сэм Нил, Джеффри Раш

Продолжительность: 01:36:47
Перевод: Дублированный

Дата мировой премьеры: 24 сентября 2010 года
Дата российской премьеры: 30 сентября 2010 года
Дата выхода DVD релиза: 27 января 2011 года

Формат: MP4
Качество видео: BDRip
Видеокодек: MPEG-4 Visual
Аудиокодек: AAC-LC
Видео: 640х352(2.35:1), ~677 Кбит/сек, 25,000 кадр/сек
Аудио: 128 Кбит/сек, 48.0 КГц, 2 ch — Русский (Дубляж)

MediaInfo »

MediaInfo Общее
Полное имя : Легенды ночных стражей.mp4
Формат : MPEG-4
Профиль формата : Base Media / Version 2
Идентификатор кодека : mp42
Размер файла : 559 Мбайт
Продолжительность : 1 ч. 36 м.
Общий поток : 807 Кбит/секВидео
Идентификатор : 201
Формат : MPEG-4 Visual
Профиль формата : [email protected]
Параметр BVOP формата : Нет
Параметр QPel формата : Нет
Параметр GMC формата : Без точки перехода
Параметр матрицы формата : Default (H.263)
Идентификатор кодека : 20
Продолжительность : 1 ч. 36 м.
Вид битрейта : Переменный
Битрейт : 677 Кбит/сек
Максимальный битрейт : 6588 Кбит/сек
Ширина : 640 пикс.
Высота : 352 пикс.
Соотношение сторон : 16:9
Режим частоты кадров : Постоянный
Частота кадров : 25,000 кадр/сек
Цветовое пространство : YUV
Подвыборка цветности : 4:2:0
Битовая глубина : 8 бит
Тип развёртки : Прогрессивная
Метод сжатия : С потерями
Бит/(Пиксели*Кадры) : 0.120
Размер потока : 468 Мбайт (84%)
Библиотека кодирования : ZJMedia MPEG Encoder

Аудио
Идентификатор : 101
Формат : AAC
Формат/Информация : Advanced Audio Codec
Профиль формата : LC
Идентификатор кодека : 40
Продолжительность : 1 ч. 36 м.
Вид битрейта : Переменный
Битрейт : 128 Кбит/сек
Максимальный битрейт : 137 Кбит/сек
Канал(ы) : 2 канала(ов)
Расположение каналов : Front: L R
Частота : 48,0 КГц
Метод сжатия : С потерями
Размер потока : 88,6 Мбайт (16%)

хостинг украина

Скриншоты:
——————————————————————————————————————————————————
——————————————————————————————————————————————————
Скачать